Звездные врата: Вселенная / Stargate Universe / Сезон 2 / Серии 1-20 (20) (Энди Микита, Уильям Варинг) [2010 г., Фантастика, WEB-DLRip-AVC] MVO (ТВ3)

Ответить на тему
 
Автор
Сообщение

awk05 ®

Пол:

Стаж: 8 лет 3 месяца

Сообщений: 1334

Репутация: 275 [+] [-]

Откуда: Западная Украина Ривне

Пост 23-Дек-2013 18:41

[Цитировать] 

--Звездные врата: Вселенная / Stargate Universe-- Год выпуска: 2010
Страна: Канада, США
Жанр: Фантастика
Сезон/Серия: Сезон:2 /Серия 1-20 из 20
Продолжительность: 20 x 00:42:00
Перевод: Профессиональный многоголосый закадровый (ТВ3)
Субтитры: нет--Режиссёр: Энди Микита, Уильям Варинг, Питер ДеЛуис...--В ролях: Роберт Карлайл, Луис Феррейра, Брайан Смит, Элиз Левек, Дэвид Блу, Элейна Каланж, Джамил Уолкер Смит, Питер Келамис, Патрик Гилмор, Дженнифер Спенс--Описание: Таинственный девятый шеврон переносит команду исследователей с Земли на беспилотное судно Древних с названием «Судьба», где выясняется, что возврата на Землю нет. Команде предстоит приспособиться к жизни на борту судна, несущего их в далекие уголки Вселенной по проложенному Древними курсу и, возможно, свыкнуться с мыслью, что этот корабль станет их домом и тюрьмой до последних секунд их жизней...--Качество: WEB-DLRip-AVC
Формат: MKV
Видео кодек: H.264
Аудио кодек: AC3
Видео: 720x400 (1.77:1), 23.976 fps, ~1200 kbps avg, 0.19 bit/pixel
Аудио РУС: 48 kHz, AC3, 2 ch, ~192 kbps--Запись и синхронизация звука: Taliy
Подстраховка звука: kvaker77, CRYSIS, Michael Tag
Работа с видео: Allo-4ka
Релиз: -- --

MI

Общее
Уникальный идентификатор : 254228877527988246716429263658042574670 (0xBF42B3675C5DF856A667DC621A0CC74E)
Полное имя : D:\Stargate.Universe.s02.e01.rus.WEB-DLRip_h264.casstudio_tv.mkv
Формат : Matroska
Версия формата : Version 2
Размер файла : 433 Мбайт
Продолжительность : 43 м.
Общий поток : 1394 Кбит/сек
Дата кодирования : UTC 2012-12-06 16:42:44
Программа кодирования : mkvmerge v5.8.0 ('No Sleep / Pillow') built on Sep 2 2012 15:37:04
Библиотека кодирования : libebml v1.2.3 + libmatroska v1.3.0
Видео
Идентификатор : 1
Формат : AVC
Формат/Информация : Advanced Video Codec
Профиль формата : High@L3.1
Параметр CABAC формата : Да
Параметр ReFrames формата : 10 кадров
Идентификатор кодека : V_MPEG4/ISO/AVC
Продолжительность : 43 м.
Битрейт : 1200 Кбит/сек
Ширина : 720 пикселей
Высота : 400 пикселей
Соотношение сторон : 16:9
Частота кадров : 23,976 кадра/сек
Цветовое пространство : YUV
Субдискретизация насыщенности : 4:2:0
Битовая глубина : 8 бит
Тип развёртки : Прогрессивная
Бит/(Пиксели*Кадры) : 0.174
Размер потока : 365 Мбайт (84%)
Библиотека кодирования : x264 core 125 r2200 999b753
Настройки программы : cabac=1 / ref=10 / deblock=1:-1:-1 / analyse=0x3:0x133 / me=umh / subme=10 / psy=1 / psy_rd=1.00:0.15 / mixed_ref=1 / me_range=32 / chroma_me=1 / trellis=2 / 8x8dct=1 / cqm=0 / deadzone=21,11 / fast_pskip=1 / chroma_qp_offset=-3 / threads=6 / lookahead_threads=1 / sliced_threads=0 / nr=0 / decimate=1 / interlaced=0 / bluray_compat=0 / constrained_intra=0 / bframes=10 / b_pyramid=2 / b_adapt=2 / b_bias=0 / direct=3 / weightb=1 / open_gop=0 / weightp=2 / keyint=240 / keyint_min=23 / scenecut=40 / intra_refresh=0 / rc_lookahead=40 / rc=2pass / mbtree=1 / bitrate=1200 / ratetol=1.0 / qcomp=0.60 / qpmin=0 / qpmax=69 / qpstep=4 / cplxblur=20.0 / qblur=0.5 / ip_ratio=1.40 / aq=1:1.00
Язык : English
Default : Да
Forced : Нет
Аудио
Идентификатор : 2
Формат : AC-3
Формат/Информация : Audio Coding 3
Расширение режима : CM (complete main)
Параметр Endianness формата : Big
Идентификатор кодека : A_AC3
Продолжительность : 43 м.
Вид битрейта : Постоянный
Битрейт : 192 Кбит/сек
Каналы : 2 канала
Расположение каналов : Front: L R
Частота : 48,0 КГц
Битовая глубина : 16 бит
Метод сжатия : С потерями
Размер потока : 59,7 Мбайт (14%)
Язык : Russian
Default : Да
Forced : Нет

Скриншоты



_________________
[Торрент-статистика]
[Профиль]  [ЛС] 
Показать сообщения:    
Ответить на тему

Текущее время: Сегодня 12:14

Часовой пояс: GMT + 4



Вы не можете начинать темы
Вы не можете отвечать на сообщения
Вы не можете редактировать свои сообщения
Вы не можете удалять свои сообщения
Вы не можете голосовать в опросах
Вы не можете прикреплять файлы к сообщениям
Вы не можете скачивать файлы