Звёздные Врата: Вселенная / Stargate Universe (1 сезон, 20 серий) (Брэд Райт и Роберт Купер) [2009 г., фантастика, WEB-DLRip] (ТВ3)

Ответить на тему
 
Автор
Сообщение

awk05 ®

Пол:

Стаж: 8 лет 3 месяца

Сообщений: 1334

Репутация: 275 [+] [-]

Откуда: Западная Украина Ривне

Пост 23-Дек-2013 18:32

[Цитировать] 

--Звёздные Врата: Вселенная / Stargate Universe-- Год выпуска: 2009
Страна: США
Жанр: фантастика
Сезон/Серия: Сезон:1 /Серия 1-20 из 20
Продолжительность: 20 х 00:42:00 мин
Перевод: Профессиональный (многоголосый, закадровый) студия Инис (ТВ3)
Создатели сериала: Брэд Райт и Роберт Купер--В ролях: Роберт Карлайл, Джастин Льюис, Дэвид Блу, Брайан Смит, Джэмил Уокер Смит, Элайна Хаффман, Элайза Левески, Минь-На и др.--Описание: События третьей эпопеи, как и в предыдущих двух сериалах о Вселенной Звездных врат, по-прежнему происходят в наше время. Однако в этот раз действие было «перенесено на космическое судно, когда-то являвшееся частью эксперимента Древних» по распространению во Вселенной сети Звёздных врат. Размещение Врат во всём множестве галактик было начальным этапом этого эксперимента. Вторым этапом, по планам Древних, должно было стать исследование (с помощью уже другого корабля) тех миров, на которых в ходе предыдущего этапа были размещены Врата. Однако, начав эксперимент миллионы лет назад, Древние так и не довели его до конца из-за своего вознесения.
Сериал начинается с того, что таинственный девятый шеврон переносит команду исследователей с Земли на беспилотное судно Древних с названием «Судьба» (англ. Destiny), где выясняется, что возврата на Землю нет. В ходе сериала команде предстоит приспособиться к жизни на борту судна, несущего их в далекие уголки Вселенной по проложенному Древними курсу.--Качество: WEB-DLRip
Формат: AVI
Видео кодек: XviD
Аудио кодек: MP3
Видео: 720x400 (1.80:1), 25 000fps, XviD build 55 ~1623 kbps avg, 0.225 bit/pixel
Аудио 1: 48 kHz, MPEG Layer 3, 2 ch, ~128.00 kbps avg
Аудио 2: 48 kHz, MPEG Layer 3, 2 ch, ~128.00 kbps avg-- --

MediaInfo

General
Complete name : E:\Сериалы новые\1 Сезон\Stargate.Universe.s01e01.Air.Pt.1.rus.eng.web-dlrip_filmgate.tv.avi
Format : AVI
Format/Info : Audio Video Interleave
File size : 569 MiB
Duration : 42mn 1s
Overall bit rate : 1 894 Kbps
Writing application : VirtualDubModRus 1.5.10.2 (build 2542/release)
Writing library : VirtualDubMod build 2542/release
Video
ID : 0
Format : MPEG-4 Visual
Format profile : Advanced Simple@L5
Format settings, BVOP : 8
Format settings, QPel : No
Format settings, GMC : No warppoints
Format settings, Matrix : Default (H.263)
Codec ID : XVID
Codec ID/Hint : XviD
Duration : 42mn 1s
Bit rate : 1 623 Kbps
Width : 720 pixels
Height : 400 pixels
Display aspect ratio : 16:9
Frame rate : 25.000 fps
Color space : YUV
Chroma subsampling : 4:2:0
Bit depth : 8 bits
Scan type : Progressive
Compression mode : Lossy
Bits/(Pixel*Frame) : 0.225
Stream size : 488 MiB (86%)
Writing library : XviD 1.3.0.dev55
Audio #1
ID : 1
Format : MPEG Audio
Format version : Version 1
Format profile : Layer 3
Mode : Joint stereo
Mode extension : MS Stereo
Codec ID : 55
Codec ID/Hint : MP3
Duration : 42mn 1s
Bit rate mode : Constant
Bit rate : 128 Kbps
Channel count : 2 channels
Sampling rate : 48.0 KHz
Compression mode : Lossy
Stream size : 38.5 MiB (7%)
Alignment : Aligned on interleaves
Interleave, duration : 40 ms (1.00 video frame)
Interleave, preload duration : 504 ms
Audio #2

_________________
[Торрент-статистика]
[Профиль]  [ЛС] 
Показать сообщения:    
Ответить на тему

Текущее время: Сегодня 18:20

Часовой пояс: GMT + 4



Вы не можете начинать темы
Вы не можете отвечать на сообщения
Вы не можете редактировать свои сообщения
Вы не можете удалять свои сообщения
Вы не можете голосовать в опросах
Вы не можете прикреплять файлы к сообщениям
Вы не можете скачивать файлы