Большая свадьба / The Big Wedding (Джастин Закэм / Justin Zackham) [2013 г., комедия, HDRip] КПК [MP4, 640х] | Лицензия

Ответить на тему
 
Автор
Сообщение

ArtZak ®

Пол:

Стаж: 8 лет 10 месяцев

Сообщений: 2833

Репутация: 1366 [+] [-]

Откуда: Россия

Пост 14-Авг-2013 13:47

[Цитировать] 

Большая свадьба / The Big Wedding
«Вы приглашены свидетелями!»
- Год выпуска: 2013
Страна: США
Жанр: комедия
Продолжительность: 01:29:32
Перевод: Профессиональный (полное дублирование) [Лицензия]
Режиссер: Джастин Закэм / Justin Zackham
Производство: Millennium Films, Two Ton Films- -В ролях:
Роберт Де Ниро, Дайан Китон, Кэтрин Хайгл, Сьюзен Сарандон, Бен Барнс, Аманда Сайфред, Тофер Грейс, Ана Айора, Робин Уильямс, Патриция Рэй и др.
Описание:
История о современной семье, пытающейся пережить выходные свадебного торжества, которые могут обернуться полным крахом для них. К удивлению своих детей и друзей давно разведенные Дон и Элли Гриффин вынуждены притворяться счастливыми ради свадьбы своего приемного сына, после того как его ультраконсервативная биологическая мать неожиданно решает пролететь через пол мира, чтобы принять участие в этом торжестве…
Сэмпл: http://multi-up.com/893856
Тип релиза: HDRip (Исходник)
Контейнер: MP4
Видео кодек: H.264 (AVC)
Аудио кодек: AAC
Видео: AVC, 640x272 (2.35:1), 23.976 fps, 650 Kbps (0.156 bit/pixel)
Аудио: AAC LC, 44.1 KHz, 2 ch, 158 Kbps, VBR

MI

General
Complete name : E:\640x\Большая свадьба 2013 640x.mp4
Format : MPEG-4
Format profile : Base Media / Version 2
Codec ID : mp42
File size : 519 MiB
Duration : 1h 29mn
Overall bit rate mode : Variable
Overall bit rate : 811 Kbps
Encoded date : UTC 2013-08-14 08:55:37
Tagged date : UTC 2013-08-14 08:56:20
Writing application : mp4creator 1.6.1d
Video
ID : 1
Format : AVC
Format/Info : Advanced Video Codec
Format profile : High@L2.1
Format settings, CABAC : No
Format settings, ReFrames : 1 frame
Codec ID : avc1
Codec ID/Info : Advanced Video Coding
Duration : 1h 29mn
Bit rate mode : Variable
Bit rate : 650 Kbps
Width : 640 pixels
Height : 272 pixels
Display aspect ratio : 2.35:1
Original display aspect ratio : 2.40:1
Frame rate mode : Variable
Frame rate : 23.976 fps
Minimum frame rate : 23.974 fps
Maximum frame rate : 23.981 fps
Color space : YUV
Chroma subsampling : 4:2:0
Bit depth : 8 bits
Scan type : Progressive
Bits/(Pixel*Frame) : 0.156
Stream size : 417 MiB (80%)
Language : English
Encoded date : UTC 2013-08-14 08:55:37
Tagged date : UTC 2013-08-14 08:56:06
Audio
ID : 2
Format : AAC
Format/Info : Advanced Audio Codec
Format profile : LC
Codec ID : 40
Duration : 1h 29mn
Source duration : 1h 29mn
Bit rate mode : Variable
Bit rate : 158 Kbps
Maximum bit rate : 208 Kbps
Channel(s) : 2 channels
Channel positions : Front: L R
Sampling rate : 44.1 KHz
Compression mode : Lossy
Stream size : 101 MiB (19%)
Source stream size : 101 MiB (19%)
Language : English
Encoded date : UTC 2013-08-14 08:56:06
Tagged date : UTC 2013-08-14 08:56:20

Скриншоты


-Релиз от:
-


Последний раз редактировалось: ArtZak (2013-08-15 13:09), всего редактировалось 2 раз(а)
[Торрент-статистика]
[Профиль]  [ЛС] 

leon024

Пол:

Стаж: 7 лет 5 месяцев

Сообщений: 1144

Репутация: 634 [+] [-]

Откуда: Россия

Пост 14-Авг-2013 19:20 (спустя 5 часов)

[Цитировать] 

Сейчас смотрю по телику это кино. Телик Philips 5500 127 диоганака с Wi-Fi
[Торрент-статистика]
[Профиль]  [ЛС] 

ArtZak ®

Пол:

Стаж: 8 лет 10 месяцев

Сообщений: 2833

Репутация: 1366 [+] [-]

Откуда: Россия

Пост 14-Авг-2013 23:26 (спустя 4 часа)

[Цитировать] 

leon024, ну и как фильмец?
[Торрент-статистика]
[Профиль]  [ЛС] 
Показать сообщения:    
Ответить на тему

Текущее время: Сегодня 14:44

Часовой пояс: GMT + 4



Вы не можете начинать темы
Вы не можете отвечать на сообщения
Вы не можете редактировать свои сообщения
Вы не можете удалять свои сообщения
Вы не можете голосовать в опросах
Вы не можете прикреплять файлы к сообщениям
Вы не можете скачивать файлы