Рухнувшие небеса / Falling Skies, полный 1 сезон (Грег Биман, Серджо Мимика-Геззан, Холли Дэйл) [2011 г., фантастика, боевик, триллер, HDTVRip] КПК | LostFilm

Ответить на тему
 
Автор
Сообщение

alien.09 ®

Пол:

Стаж: 7 лет 5 месяцев

Сообщений: 623

Репутация: 570 [+] [-]

Пост 28-Июл-2013 11:17

[Цитировать] 

Рухнувшие небеса / Falling Skies
Год выпуска: 2011
Страна: США, Канада
Жанр: фантастика, боевик, триллер
Продолжительность серии: ~40 мин.
Перевод: Профессиональный (многоголосый закадровый) LostFilm
Режиссер: Грег Биман, Серджо Мимика-Геззан, Холли Дэйл
Производство: DreamWorks Television, Invasion Productions, TNT Originals
Официальный сайт- -В ролях:
Ноа Уайли, Мун Бладгуд, Дрю Рой, Коннор Джессуп, Максим Найт, Сейшелл Гэбриел, Уилл Пэттон, Сара Картер, Колин Каннингэм, Питер Шинкода и др.
Описание:
Инопланетное вторжение стало для землян полной неожиданностью. Несколько выживших объединяются, чтобы ежедневно бороться за выживание и попытаться наладить связь с такими же как они «счастливчиками» из других городов, и дать отпор захватчикам из космоса.
Сэмпл: http://multi-up.com/889218
Тип релиза: HDTVRip
Контейнер: MP4
Видео кодек: H264 (AVC)
Аудио кодек: AAC
Видео: AVC, 640x352 (16:9), 23.976 fps, 549 Kbps (0.102 bit/pixel)
Аудио: AAC LC, 48.0 KHz, 2 ch, 128 Kbps, CBR

Список серий

Эпизод - 01: Live and Learn
Эпизод - 02: The Armory
Эпизод - 03: Prisoner of War
Эпизод - 04: Grace
Эпизод - 05: Silent Kill
Эпизод - 06: Sanctuary: Part 1
Эпизод - 07: Sanctuary: Part 2
Эпизод - 08: What Hides Beneath
Эпизод - 09: Mutiny
Эпизод - 10: Eight Hours

MI Report

Общее
Полное имя : C:\Users\Gary\Videos\Бродимком\Сошедшие с небес (Рухнувшие небеса), сезон 1\Falling.Skies.S01E01E02.mp4
Формат : MPEG-4
Профиль формата : Base Media
Идентификатор кодека : isom
Размер файла : 400 Мбайт
Продолжительность : 1 ч. 22 м.
Общий поток : 676 Кбит/сек
Исполнитель : RG BrodimCom
Программа кодирования : XviD4PSP 6.0 / 54.29.105
Видео
Идентификатор : 1
Формат : AVC
Формат/Информация : Advanced Video Codec
Профиль формата : Main@L4.1
Параметр CABAC формата : Да
Параметр ReFrames формата : 3 кадра
Идентификатор кодека : avc1
Идентификатор кодека/Информация : Advanced Video Coding
Продолжительность : 1 ч. 22 м.
Битрейт : 549 Кбит/сек
Ширина : 640 пикселей
Высота : 352 пикселя
Соотношение сторон : 16:9
Режим частоты кадров : Постоянный
Частота кадров : 23,976 кадра/сек
Цветовое пространство : YUV
Субдискретизация насыщенности : 4:2:0
Битовая глубина : 8 бит
Тип развёртки : Прогрессивная
Бит/(Пиксели*Кадры) : 0.102
Размер потока : 321 Мбайт (80%)
Библиотека кодирования : x264 core 128 r2216M 198a7ea
Настройки программы : cabac=1 / ref=3 / deblock=1:0:0 / analyse=0x1:0x131 / me=hex / subme=7 / psy=1 / psy_rd=1.00:0.20 / mixed_ref=1 / me_range=16 / chroma_me=1 / trellis=1 / 8x8dct=0 / cqm=0 / deadzone=21,11 / fast_pskip=1 / chroma_qp_offset=-3 / threads=8 / lookahead_threads=1 / sliced_threads=0 / nr=0 / decimate=1 / interlaced=0 / bluray_compat=0 / constrained_intra=0 / bframes=3 / b_pyramid=0 / b_adapt=2 / b_bias=0 / direct=3 / weightb=1 / open_gop=0 / weightp=0 / keyint=230 / keyint_min=23 / scenecut=40 / intra_refresh=0 / rc_lookahead=40 / rc=cbr / mbtree=1 / bitrate=549 / ratetol=1.0 / qcomp=0.60 / qpmin=10 / qpmax=51 / qpstep=4 / vbv_maxrate=549 / vbv_bufsize=1835 / nal_hrd=none / ip_ratio=1.40 / aq=1:1.00
Аудио
Идентификатор : 2
Формат : AAC
Формат/Информация : Advanced Audio Codec
Профиль формата : LC
Идентификатор кодека : 40
Продолжительность : 1 ч. 22 м.
Вид битрейта : Постоянный
Битрейт : 128 Кбит/сек
Каналы : 2 канала
Расположение каналов : Front: L R
Частота : 48,0 КГц
Метод сжатия : С потерями
Задержка видео : 42 мс.
Размер потока : 75,7 Мбайт (19%)

Скриншоты

-Релиз от:
-

_________________
Правообладатели, убейтесь об эту надпись.


Последний раз редактировалось: alien.09 (2013-07-28 18:39), всего редактировалось 1 раз
[Торрент-статистика]
[Профиль]  [ЛС] 
Показать сообщения:    
Ответить на тему

Текущее время: Сегодня 23:58

Часовой пояс: GMT + 4



Вы не можете начинать темы
Вы не можете отвечать на сообщения
Вы не можете редактировать свои сообщения
Вы не можете удалять свои сообщения
Вы не можете голосовать в опросах
Вы не можете прикреплять файлы к сообщениям
Вы не можете скачивать файлы