Колёса Страны Советов: были и небылицы. История советского автопрома. Выпуск 1, серии 1-4 (Андрей Крюковский) [2011, документальный, научно-популярный, DVD5]

Ответить на тему
 
Автор
Сообщение

ArtZak ®

Пол:

Стаж: 8 лет 11 месяцев

Сообщений: 2833

Репутация: 1366 [+] [-]

Откуда: Россия

Пост 14-Май-2013 20:01

[Цитировать] 

Колёса Страны Советов: были и небылицы. История советского автопрома. Выпуск 1- Год выпуска: 2011
Страна: Россия
Жанр: документальный, научно-популярный
Продолжительность серии: ~ 38 мин.
Режиссер: Андрей Крюковский
Описание:
Бытует мнение, что советская автомобильная промышленность всегда находилась в арьергарде мирового технического прогресса, что, дескать, собственных оригинальных конструкций в СССР не было, а на конвейер попадали лишь устаревшие копии иностранных машин. Ну, а написанные в прошлые годы книги про "Колеса Страны Советов" принято ныне считать идеологической дезинформацией. Так ли это на самом деле? Обмана и недомолвок в официальной истории отечественного автопрома было хоть отбавляй. Государственно-партийное заклинание "советское - значит лучшее" вынуждало искажать факты и цифры, закрывать глаза на ошибки и раздувать масштабы побед. После развала СССР тенденция поменялась: ничего хорошего никогда не было и уже не будет, потому что наши "шедевры" отечественного автопрома годятся только на металлолом. Нам предстоит установить в этом вопросе разумный паритет. Для этого мы будем использовать архивные материалы, выслушивать мнение независимых экспертов, вместе с профессиональными механиками разбираться в конструкции и характеристиках отечественных автолегенд...
Качество: DVD5
Контейнер: DVD video
Видеокодек: MPEG2
Аудиокодек: AC3
Видео: MPEG 2, 720x576 (4:3), 25.000 fps, 6 000 Kbps (0.351 bit/pixel)
Аудио: AC-3, 48.0 KHz, 2 ch, 128 Kbps, CBR

Название серий

Фильм 1. Итальянский иммигрант и советский резидент
Наследие Рейха - народному хозяйству!
Малолитражка от "оборонки".
"Жигули": работа над ошибками ФИАТа.
Фильм 2. От верхнего до нижнего регистра
Перекуем Паккад на ЗиС!
"Костыль с мотором" - презент ветеранам.
"Миша + Рая": последнее "прости"...
Фильм 3. Передайте за проезд
"Курносые" символы мирной жизни.
"Автомат" на "скотовозе".
Через тернии - в райцентр!
Фильм 4. Гренадеры битвы за коммунизм
Два такта на шесть тонн.
КрАЗ: суровый, но симпатичный!
Представители отряда "глыбовозов".

MI

General
Complete name : D:\downloads\KSS\VIDEO_TS\VTS_01_1.VOB
Format : MPEG-PS
File size : 1 024 MiB
Duration : 37mn 13s
Overall bit rate mode : Variable
Overall bit rate : 3 847 Kbps
Video
ID : 224 (0xE0)
Format : MPEG Video
Format version : Version 2
Format profile : Main@Main
Format settings, BVOP : Yes
Format settings, Matrix : Default
Format settings, GOP : Variable
Duration : 37mn 13s
Bit rate mode : Variable
Bit rate : 3 642 Kbps
Maximum bit rate : 6 000 Kbps
Width : 720 pixels
Height : 576 pixels
Display aspect ratio : 4:3
Frame rate : 25.000 fps
Standard : PAL
Color space : YUV
Chroma subsampling : 4:2:0
Bit depth : 8 bits
Scan type : Interlaced
Scan order : Top Field First
Compression mode : Lossy
Bits/(Pixel*Frame) : 0.351
Time code of first frame : 00:00:00:00
Time code source : Group of pictures header
Stream size : 970 MiB (95%)
Audio
ID : 189 (0xBD)-128 (0x80)
Format : AC-3
Format/Info : Audio Coding 3
Mode extension : CM (complete main)
Format settings, Endianness : Big
Muxing mode : DVD-Video
Duration : 37mn 12s
Bit rate mode : Constant
Bit rate : 128 Kbps
Channel(s) : 2 channels
Channel positions : Front: L R
Sampling rate : 48.0 KHz
Bit depth : 16 bits
Compression mode : Lossy
Delay relative to video : -80ms
Stream size : 34.1 MiB (3%)
Menu

DVDInfo

Title: KSS
Size: 3.96 Gb ( 4 151 906,00 KBytes ) - DVD-5
Enabled regions: 1, 2, 3, 4, 5, 6, 7, 8
VTS_01 :
Play Length: 00:38:15
Video: PAL 4:3 (720x576) VBR
Audio:
English (Dolby AC3, 2 ch)
VTS_02 :
Play Length: 00:38:42
Video: PAL 4:3 (720x576) VBR
Audio:
English (Dolby AC3, 2 ch)
VTS_03 :
Play Length: 00:38:44
Video: PAL 4:3 (720x576) VBR
Audio:
English (Dolby AC3, 2 ch)
VTS_04 :
Play Length: 00:38:15
Video: PAL 4:3 (720x576) VBR
Audio:
English (Dolby AC3, 2 ch)
* Menus Information *
VIDEO_TS Menu
Video:
PAL 4:3 (720x576) VBR
English Language Unit :
Title Menu
VTS_01 Menu
Video:
PAL 4:3 (720x576) VBR
English Language Unit :
Root Menu
VTS_02 Menu
Video:
PAL 4:3 (720x576) VBR
English Language Unit :
Root Menu
VTS_03 Menu
Video:
PAL 4:3 (720x576) VBR
English Language Unit :
Root Menu
VTS_04 Menu
Video:
PAL 4:3 (720x576) VBR
English Language Unit :
Root Menu

Скриншоты (аноморф.)

-Колёса Страны Советов: были и небылицы. История советского автопрома. Выпуск 2-
[Торрент-статистика]
[Профиль]  [ЛС] 
Показать сообщения:    
Ответить на тему

Текущее время: Сегодня 11:20

Часовой пояс: GMT + 4



Вы не можете начинать темы
Вы не можете отвечать на сообщения
Вы не можете редактировать свои сообщения
Вы не можете удалять свои сообщения
Вы не можете голосовать в опросах
Вы не можете прикреплять файлы к сообщениям
Вы не можете скачивать файлы